Скачать через торрент От праздника к празднику Фильм бесплатно в хорошем качестве torrent

Скачивайте на UnionPeer.org фильмы через торрент без регистрации. Новинки кино в хорошем качестве через торрент. На UnionPeer.org можно скачать через торрент фильмы 2014 и 2015 годов. Самые новые фильмы.

Скачать торрент От праздника к празднику бесплатно через .torrent фильм мультфильм сериал

Статистика раздачи
Размер:  746 MB   |    Зарегистрирован:  4 года 1 месяц   |    .torrent скачан:  111 раз   |   
Раздают:  1  
   
загрузка...
 
Автор Сообщение

Galfimbul

avatar Galfimbul


От праздника к празднику



[b]Год выхода:
2014
Жанр: Мелодрама, драма
Режиссёр: Алексей Карелин
В ролях: Евгения Осипова, Алексей Янин, Наталья Лесниковская, Андрей Сенькин, Святослав Астрамович, Лариса Маршалова, Марк Нестер, Александр Павлов, Виктор Молчан, Валентина Харитонова, Сергей Зыгмантович, Олег Ткачёв, Алла Волынец, Алиса Петрова, Иван Павлов, Анжелика Метте

О фильме:
Лёля мечтает о красивой и богатой жизни. Перед её глазами постоянный пример её подруги Шуши, удачно вышедшей замуж за бизнесмена Васю. Однако обстоятельства складываются так, что Лёля принимает ответственность за маму, за брата, за невестку, за племянника. И неожиданно для себя она понимает, что настоящее богатство - это любовь...


Страна: Россия
Студия: Кинокомпания "Студия Паламеда", Продюсерский центр "Фабула"
Продолжительность: 01:30:45
Перевод: Не требуется

Файл
Кодек: XviD
Качество: HDTVRip [Исходник: HDTV (1080i)]
Видео: XviD, 656x368 (16:9), 25 кадр/с, 1011 Кбит/с
Звук: Русский, MP3, 48000 Гц, 128 Кбит/с, 2 канала (Стерео)
Субтитры: Нет

General
Complete name : Ot.prazdnika.k.prazdniku.2014.HDTVRip.745MB.avi
Format : AVI
Format/Info : Audio Video Interleave
File size : 746 MiB
Duration : 1h 30mn
Overall bit rate : 1 149 Kbps
Writing application : VirtualDubMod 1.5.10.3 (build 2550/release)
Writing library : VirtualDubMod build 2550/release
Copyright : rip by ivandubskoj

Video
ID : 0
Format : MPEG-4 Visual
Format profile : Advanced Simple@L5
Format settings, BVOP : 2
Format settings, QPel : No
Format settings, GMC : No warppoints
Format settings, Matrix : Custom
Codec ID : XVID
Codec ID/Hint : XviD
Duration : 1h 30mn
Bit rate : 1 011 Kbps
Width : 656 pixels
Height : 368 pixels
Display aspect ratio : 16:9
Frame rate : 25.000 fps
Color space : YUV
Chroma subsampling : 4:2:0
Bit depth : 8 bits
Scan type : Progressive
Compression mode : Lossy
Bits/(Pixel*Frame) : 0.167
Stream size : 656 MiB (88%)
Writing library : XviD 73

Audio
ID : 1
Format : MPEG Audio
Format version : Version 1
Format profile : Layer 3
Codec ID : 55
Codec ID/Hint : MP3
Duration : 1h 30mn
Bit rate mode : Constant
Bit rate : 128 Kbps
Channel(s) : 2 channels
Sampling rate : 48.0 KHz
Compression mode : Lossy
Stream size : 83.1 MiB (11%)
Alignment : Aligned on interleaves
Interleave, duration : 40 ms (1.00 video frame)
Interleave, preload duration : 504 ms
Writing library : LAME3.99r
Encoding settings : -m s -V 4 -q 0 -lowpass 17 -b 128
Автор рипа - ivandubskoj

Трекер:  [ 20-Дек-2014 15:00 ]

  

Скачать .torrent

Размер .torrent файла 15 KB


Размер: 746 MB
Хэш (hash) релиза: f4bd26beabf9e0506fcaf9d8bbaa6c86db1abbb7
Подписка на обновления:

Торренты, похожие на От праздника к празднику скачать торрент

Форум Название Автор Размер S L Добавлен
Российские фильмы до 2016 ·· От праздника к празднику (Алексей Карелин) [2014, Мелодрама, HDTVRip 720p] Galfimbul 26096381282.43 GB 0 0 1419067801

12:30

20-Дек-14

Российские фильмы до 2016 ·· От праздника к празднику (Алексей Карелин) [2014, Мелодрама, HDTVRip] Galfimbul 14712396861.37 GB 0 0 1419047491

06:51

20-Дек-14

Российские фильмы до 2016 ·· От праздника к празднику (Алексей Карелин) [2014, Мелодрама, HDTV 1080i] Galfimbul 58695897365.47 GB 0 0 1419027976

01:26

20-Дек-14

Еще никто не оставлял запись к записи скачать торрент От праздника к празднику . Будь первым!

!Обратная связь