Скачать через торрент Праздник любви Feast of Love Фильм бесплатно в хорошем качестве torrent

Скачивайте на UnionPeer.org фильмы через торрент без регистрации. Новинки кино в хорошем качестве через торрент. На UnionPeer.org можно скачать через торрент фильмы 2014 и 2015 годов. Самые новые фильмы.

Скачать торрент Праздник любви Feast of Love бесплатно через .torrent фильм мультфильм сериал

Статистика раздачи
Размер:  4.16 GB   |    Зарегистрирован:  11 месяцев   |    .torrent скачан:  29 раз   |   
Раздают:  1  
   
загрузка...
 
Автор Сообщение

Galfimbul

avatar Galfimbul


Праздник любви / Feast of Love

Год выпуска: 2007
Страна: США
Жанр: Мелодрама, Драма
Продолжительность: 01:41:26
Перевод: Профессиональный (полное дублирование)

Режиссер: Роберт Бентон

В ролях: Морган Фриман, Грег Киннер, Рада Митчел, Билли Бурк, Сэльма Блэр, Алекса Давалос, Тоби Хемингуэй, Стана Катич, Джейн Александр

Описание: Неужели я не одинок? Что такое любовь? Как научиться любить? Ответы на эти вопросы ищут герои фильма. Обыкновенные люди из обыкновенного городка штата Орегон собираются в маленький кружок под руководством Гарри Скотта, чтобы разобраться в самом загадочном, что есть в жизни — в таинстве любви.

Но никто не знает, что всезнающий профессор вот уже много лет бередит свою сердечную рану — он, Гарри Скотт, респектабельный доктор философии из Орегона, винит себя в гибели сына. Может, поэтому он ставит перед собой задачу научить людей любить друг друга, здесь и сейчас? Может, поэтому Гарри хочет помочь тем, кто одинок в этом мире, тем, кто потерял свою любовь и тем, кто только-только попал во власть этого великого чувства? Впрочем, это уже не важно, потому что у всех на глазах, сплетаясь в пестрый гобелен, расцветают нежные и экзотические цветы любви. Их воплощения, магические и мистические, ранят и одновременно исцеляют. Теперь главное — не дать им погибнуть.

Качество: BDRip
Формат: MKV
Видео кодек: MPEG4 AVC
Аудио кодек: AC3
Видео: x264 1280x528 24fps 4658Kbps
Аудио 1: AC3 5.1ch 48KHz 448Kbps [Rus]
Аудио 2: DTS 5.1ch 48KHz 768Kbps [Eng]
GeneralUnique ID : 235735909495642364970737983472199390816 (0xB15915AF53468B7191FB41FD3CF5D660)Complete name : C:\torrent\Feast.Of.Love.2007.720p.BluRay.x264-SiNNERS.mkvFormat : MatroskaFormat version : Version 1File size : 4.16 GiBDuration : 1 h 41 minOverall bit rate : 5 865 kb/sEncoded date : UTC 2008-06-30 15:32:50Writing application : mkvmerge v2.2.0 ('Turn It On Again') built on Mar 4 2008 12:58:26Writing library : libebml v0.7.7 + libmatroska v0.8.1

VideoID : 1Format : AVCFormat/Info : Advanced Video CodecFormat profile : High@L5.1Format settings : CABAC / 5 Ref FramesFormat settings, CABAC : YesFormat settings, RefFrames : 5 framesCodec ID : V_MPEG4/ISO/AVCDuration : 1 h 41 minBit rate : 4 658 kb/sWidth : 1 280 pixelsHeight : 528 pixelsDisplay aspect ratio : 2.40:1Frame rate mode : ConstantFrame rate : 24.000 FPSColor space : YUVChroma subsampling : 4:2:0Bit depth : 8 bitsScan type : ProgressiveBits/(Pixel*Frame) : 0.287Stream size : 3.22 GiB (78%)Writing library : x264 core 60 r889 2c59717Encoding settings : cabac=1 / ref=5 / deblock=1:0:0 / analyse=0x3:0x113 / me=umh / subme=7 / brdo=1 / mixed_ref=1 / me_range=16 / chroma_me=1 / trellis=1 / 8x8dct=1 / cqm=0 / deadzone=21,11 / chroma_qp_offset=0 / threads=6 / nr=0 / decimate=1 / mbaff=0 / bframes=3 / b_pyramid=1 / b_adapt=1 / b_bias=0 / direct=1 / wpredb=1 / bime=1 / keyint=250 / keyint_min=25 / scenecut=40(pre) / rc=2pass / bitrate=4658 / ratetol=1.0 / rceq='blurCplx^(1-qComp)' / qcomp=1.00 / qpmin=10 / qpmax=51 / qpstep=4 / cplxblur=20.0 / qblur=0.5 / ip_ratio=1.40 / pb_ratio=1.30 / aq=2:1.00Language : EnglishDefault : YesForced : No

Audio #1ID : 2Format : AC-3Format/Info : Audio Coding 3Codec ID : A_AC3Duration : 1 h 41 minBit rate mode : ConstantBit rate : 448 kb/sChannel(s) : 6 channelsChannel positions : Front: L C R, Side: L R, LFESampling rate : 48.0 kHzFrame rate : 31.250 FPS (1536 SPF)Bit depth : 16 bitsCompression mode : LossyStream size : 325 MiB (8%)Language : RussianService kind : Complete MainDefault : YesForced : No

Audio #2ID : 3Format : DTSFormat/Info : Digital Theater SystemsCodec ID : A_DTSDuration : 1 h 41 minBit rate mode : ConstantBit rate : 755 kb/sChannel(s) : 6 channelsChannel positions : Front: L C R, Side: L R, LFESampling rate : 48.0 kHzFrame rate : 93.750 FPS (512 SPF)Bit depth : 24 bitsCompression mode : LossyStream size : 547 MiB (13%)Language : EnglishDefault : NoForced : No


Трекер:  [ 25-Янв-2018 21:01 ]

  

Скачать .torrent

Размер .torrent файла 21 KB


Размер: 4.16 GB
Хэш (hash) релиза: 8665c0fb576ed3ec510ae623440b2ee73e2c0691
Подписка на обновления:

Торренты, похожие на Праздник любви Feast of Love скачать торрент

Форум Название Автор Размер S L Добавлен
Зарубежные фильмы до 2016 ·· Праздник любви / Feast of Love (Роберт Бентон) [2007, США, Мелодрама, Драма, DVD9] Galfimbul 75587522567.04 GB 0 0 1503068771

18:06

18-Авг-17

Зарубежные фильмы до 2016 ·· Праздник любви / Feast of Love (Роберт Бентон) [2007 г., Мелодрама, Драма, BDrip 720p] Galfimbul 44623159014.16 GB 0 0 1295729200

23:46

22-Янв-11

Еще никто не оставлял запись к записи скачать торрент Праздник любви Feast of Love . Будь первым!

!Обратная связь