Скачать через торрент В поисках праздника The Leisure Seeker Фильм бесплатно в хорошем качестве torrent

Скачивайте на UnionPeer.org фильмы через торрент без регистрации. Новинки кино в хорошем качестве через торрент. На UnionPeer.org можно скачать через торрент фильмы 2014 и 2015 годов. Самые новые фильмы.

Скачать торрент В поисках праздника The Leisure Seeker бесплатно через .torrent фильм мультфильм сериал

Статистика раздачи
Размер:  3.69 GB   |    Зарегистрирован:  6 месяцев   |    .torrent скачан:  48 раз   |   
Раздают:  1  
   
загрузка...
 
Автор Сообщение

Galfimbul

avatar Galfimbul


Год выхода: 2017
Наименование: В поисках праздника
Оригинальное наименование: The Leisure Seeker
Страна: Италия, Франция
Жанр: драма, мелодрама, комедия, приключения
Режиссер постановщик: Паоло Вирдзи
В главных ролях: Хелен Миррен, Дональд Сазерленд, Кристиан МакКэй, Джанель Молони, Дэна Айви, Дик Грегори, Леандер Сулейман, Ахмед Хуссэйн, Габриэлла Цила, Дэвид Силверман

О фильме: История пожилых супругов Джона и Эллы, чья жизнь из-за прогрессирующих болезней близится к закату. Они сбегают от своих взрослых детей и врачей на старом фургоне, чтобы посетить дорогие им места и напоследок счастливо провести время вместе.



Файл
Качество: HDRip 720p
Видео данные: MKV, 1280x536 (2.40:1), 24.000 fps, 4101 Кбит/с
Аудио данные: AC3, 2 ch, 640 Кбит/с
Перевод: Любительский многоголосый (GreenРай Studio)
Продолжительность: 01:52:55
General
Unique ID : 218625152295481737449897082654355941626 (0xA479AC38B3CB8C4DB9E596752D10E8FA)
Complete name : E:ГРИНРАЙThe.Leisure.Seeker.2017.P.BDRip.720p.mkv
Format : Matroska
Format version : Version 4 / Version 2
File size : 3.69 GiB
Duration : 1 h 52 min
Overall bit rate : 4 683 kb/s
Encoded date : UTC 2018-06-28 05:18:06
Writing application : mkvmerge v8.3.0 ('Over the Horizon') 64bit
Writing library : libebml v1.3.1 + libmatroska v1.4.2

Video
ID : 1
Format : AVC
Format/Info : Advanced Video Codec
Format profile : High@L3.1
Format settings : CABAC / 4 Ref Frames
Format settings, CABAC : Yes
Format settings, RefFrames : 4 frames
Codec ID : V_MPEG4/ISO/AVC
Duration : 1 h 52 min
Bit rate : 4 041 kb/s
Width : 1 280 pixels
Height : 536 pixels
Display aspect ratio : 2.40:1
Frame rate mode : Constant
Frame rate : 24.000 FPS
Color space : YUV
Chroma subsampling : 4:2:0
Bit depth : 8 bits
Scan type : Progressive
Bits/(Pixel*Frame) : 0.245
Stream size : 3.19 GiB (86%)
Writing library : x264 core 146 r2538 121396c
Encoding settings : cabac=1 / ref=1 / deblock=1:0:0 / analyse=0x3:0x113 / me=hex / subme=2 / psy=1 / psy_rd=1.00:0.00 / mixed_ref=0 / me_range=16 / chroma_me=1 / trellis=0 / 8x8dct=1 / cqm=0 / deadzone=21,11 / fast_pskip=1 / chroma_qp_offset=0 / threads=18 / lookahead_threads=4 / sliced_threads=0 / nr=0 / decimate=1 / interlaced=0 / bluray_compat=0 / constrained_intra=0 / bframes=3 / b_pyramid=2 / b_adapt=1 / b_bias=0 / direct=1 / weightb=1 / open_gop=0 / weightp=1 / keyint=250 / keyint_min=23 / scenecut=40 / intra_refresh=0 / rc_lookahead=10 / rc=crf / mbtree=1 / crf=14.0 / qcomp=0.60 / qpmin=0 / qpmax=69 / qpstep=4 / ip_ratio=1.40 / aq=1:1.00
Language : English
Default : Yes
Forced : No

Audio
ID : 2
Format : AC-3
Format/Info : Audio Coding 3
Codec ID : A_AC3
Duration : 1 h 52 min
Bit rate mode : Constant
Bit rate : 640 kb/s
Channel(s) : 2 channels
Channel positions : Front: L R
Sampling rate : 48.0 kHz
Frame rate : 31.250 FPS (1536 SPF)
Bit depth : 16 bits
Compression mode : Lossy
Stream size : 517 MiB (14%)
Service kind : Complete Main
Default : Yes
Forced : No
Внимание, имеется видео и аудио реклама от спонсора показа Релиз от:
Источник http://BlaTor.org

Трекер:  [ 28-Июн-2018 19:40 ]

  

Скачать .torrent

Размер .torrent файла 19 KB


Размер: 3.69 GB
Хэш (hash) релиза: 4daa77ac8d3920520bbc23cafb7cafd92ff16dbe
Подписка на обновления:

Торренты, похожие на В поисках праздника The Leisure Seeker скачать торрент

Форум Название Автор Размер S L Добавлен
Зарубежные фильмы 2016-2018 (Новинки зарубежного кино) ·%· В поисках праздника / The Leisure Seeker (2017) HDRip 1080p | GreenРай Studio Galfimbul 93329409198.69 GB 0 0 1530193807

16:50

28-Июн-18

Еще никто не оставлял запись к записи скачать торрент В поисках праздника The Leisure Seeker . Будь первым!

!Обратная связь