Скачать через торрент Один на всех Сезон: 1 Фильм бесплатно в хорошем качестве torrent

Скачивайте на UnionPeer.org фильмы через торрент без регистрации. Новинки кино в хорошем качестве через торрент. На UnionPeer.org можно скачать через торрент фильмы 2014 и 2015 годов. Самые новые фильмы.

Скачать торрент Один на всех Сезон: 1 бесплатно через .torrent фильм мультфильм сериал

Статистика раздачи
Размер:  2.13 GB   |    Зарегистрирован:  6 месяцев   |    .torrent скачан:  84 раза   |   
Раздают:  1  
   
загрузка...
 
Автор Сообщение

Galfimbul

avatar Galfimbul


Один на всех
> Год выпуска: 2012> Производство: «ГРИН-ФИЛЬМ, "ПРИОР Продакшн", по заказу телеканала "Россия-1"»> Жанр: Мелодрама> Продолжительность: ~ 45 мин.> Субтитры: Отсутствуют
> Режиссер: Алексей Праздников
> В ролях: ДАлександр Дьяченко, Карина Разумовская, Оксана Базилевич, Татьяна Полонская, Ольга Сухорукова, Настя Иваненко, Светлана Киреева, Ирина Балай, Валентина Нейморовец, Лариса Леонова, Валентина Касьянова, Татьяна Захарова, Татьяна Григорьева, Стефан Отто, Александр Вонтов, Сергей Лосев, Полина Бахаревская, Регина Ацапкина, Иван Паршин, Ольга Кирсанова-Миропольская, Евгений Григорьев (III), Вадим Романов, Глеб Щур, Роман Павлушев и др.
> Описание: В зале суда сорокапятилетний мужчина, подполковник в отставке Евгений Геннадьевич Александров разводится с женой. Ухоженная вздорная женщина обвиняет бывшего мужа во всех смертных грехах: из-за него ее жизнь прошла в далеких гарнизонах, из-за него у неё нет детей, из-за его вынужденной отставки и малой пенсии она должна искать работу, хотя привыкла сидеть дома. Евгений Геннадьевич терпит ее выступление как зубную боль. Развод происходит по его инициативе и он отказывается от всего небольшого имущества — машины и квартиры под Москвой — в пользу жены.

Так Евгений Геннадьевич оказался без крыши над головой, без семьи, без работы. Теперь он возвращается в город своего детства. Там, с момента смерти его мамы, пустует квартира в старом доме на окраине города.

Приехав, Александров не узнает свой дом. Во всем царит разруха. Александров встречает свою подружку детства, Лиду. Она хоть и ровесница Александрова, но выглядит намного старше его. На ее судьбу выпало много бед и забот. От нее Александров узнает, что в доме, где прошло его детство, остались только женщины — старушки, пожилые женщины с дочками, молодые одинокие мамы с детьми…

Александров чувствует, что нужен женщинам, живущим в доме. Каждая из них видит в нем того мужчину, которого ей отчаянно не хватает — мужа, отца, сына, друга, способного заступиться, добиться справедливости и поставить на место обидчика. Евгений Геннадьевич входит в положение женщин и начинает распутывать ситуации, помогать, искать виноватых, вставать на защиту.

Так он оказывается героем разных историй, мужчиной, который «один на всех»…



> Релиз группы
> > Семпл > Кино-Театр
> Качество:HDTVRip [Источник HDTV 720p]> Формат: AVI> Видео кодек: XviD> Аудио кодек: AC3> Видео: 720x400 (1.80:1), 25 fps, XviD build 73 ~1497 kbps avg, 0.21 bit/pixel> Аудио: 48 kHz, AC3 Dolby Digital, 2/0 (L,R) ch, ~192.00 kbps avg
General
Complete name                       : D:\Один на всех\Odin.na.vseh.s01e01.2012.HDTVRip.RG.Russkie.serialy.avi
Format                              : AVI
Format/Info                         : Audio Video Interleave
File size                           : 1.06 GiB
Duration                            : 1h 29mn
Overall bit rate                    : 1 700 Kbps
Writing application                 : VirtualDubMod 1.5.10.3 | www.virtualdub-fr.org || (build 2550/release)
Writing library                     : VirtualDubMod build 2550/release

Video
ID                                  : 0
Format                              : MPEG-4 Visual
Format profile                      : Advanced Simple@L5
Format settings, BVOP               : 2
Format settings, QPel               : No
Format settings, GMC                : No warppoints
Format settings, Matrix             : Custom
Codec ID                            : XVID
Codec ID/Hint                       : XviD
Duration                            : 1h 29mn
Bit rate                            : 1 498 Kbps
Width                               : 720 pixels
Height                              : 400 pixels
Display aspect ratio                : 16:9
Frame rate                          : 25.000 fps
Color space                         : YUV
Chroma subsampling                  : 4:2:0
Bit depth                           : 8 bits
Scan type                           : Progressive
Compression mode                    : Lossy
Bits/(Pixel*Frame)                  : 0.208
Stream size                         : 956 MiB (88%)
Writing library                     : XviD 73

Audio
ID                                  : 1
Format                              : AC-3
Format/Info                         : Audio Coding 3
Mode extension                      : CM (complete main)
Format settings, Endianness         : Big
Codec ID                            : 2000
Duration                            : 1h 29mn
Bit rate mode                       : Constant
Bit rate                            : 192 Kbps
Channel(s)                          : 2 channels
Channel positions                   : Front: L R
Sampling rate                       : 48.0 KHz
Bit depth                           : 16 bits
Compression mode                    : Lossy
Stream size                         : 123 MiB (11%)
Alignment                           : Split accross interleaves
Interleave, duration                : 40 ms (1.00 video frame)
Interleave, preload duration        : 500 ms
<div class="sp-wrap">
<div class="sp-head folded">Сравнение
</div>
<div class="sp-body">Сравнение с этой раздачей ...4389028
http://screenshotcomparison.com/comparison/116873/picture:9</div>
</div>

Трекер:  [ 14-Июл-2018 22:42 ]

  

Скачать .torrent

Размер .torrent файла 11 KB


Размер: 2.13 GB
Хэш (hash) релиза: 1cf078cb0559b5f4d5cd77bc5dc8c3889631316d
Подписка на обновления:

Торренты, похожие на Один на всех Сезон: 1 скачать торрент

Форум Название Автор Размер S L Добавлен
Российские сериалы ·%· Снова один на всех / Сезон: 1 / Серии: 1-4 из 4 (Алексей Праздников) [2014, мелодрама,, WEBRip] Galfimbul 22610739202.11 GB 0 0 1532367797

20:43

23-Июл-18

Еще никто не оставлял запись к записи скачать торрент Один на всех Сезон: 1 . Будь первым!

!Обратная связь