Скачать через торрент Снова один на всех Сезон: 1 Фильм бесплатно в хорошем качестве torrent

Скачивайте на UnionPeer.org фильмы через торрент без регистрации. Новинки кино в хорошем качестве через торрент. На UnionPeer.org можно скачать через торрент фильмы 2014 и 2015 годов. Самые новые фильмы.

Скачать торрент Снова один на всех Сезон: 1 бесплатно через .torrent фильм мультфильм сериал

Статистика раздачи
Размер:  2.11 GB   |    Зарегистрирован:  5 месяцев 28 дней   |    .torrent скачан:  95 раз   |   
Раздают:  1  
   
загрузка...
 
Автор Сообщение

Galfimbul

avatar Galfimbul


Снова один на всех
> Год выпуска: 2014> Производство: «ООО «Грин Фильм» по заказу ООО «ПРИОР Продакшн»»> Жанр: Мелодрама> Продолжительность: ~ 44 мин.> Субтитры: Отсутствуют
> Режиссер: Алексей Праздников
> В ролях: Александр Дьяченко, Карина Разумовская, Алла Юганова, Настя Иваненко, Виталий Олечкин, Оксана Базилевич, Иван Паршин, Татьяна Полонская, Ольга Сухорукова, Татьяна Григорьева, Игорь Головин, Сергей Колос, Михаил Соловьёв, Егор Томошевский, Евгений Григорьев (III), Руслан Ибрагимов, Полина Красавина, Михаил Батуев, Антон Холодцов, Даниил Фролов, Ольга Калмыкова, Александр Вонтов, Ольга Онищенко, Наталья Иохвидова, Александр Демич (II), Александр Клемантович, Ольга Кирсанова-Миропольская, Алисия Зеланд, Ксения Асмоловская, Владимир Меренков и др.
> Описание: Бравый подполковник Александров продолжает борьбу за добро и справедливость. Теперь он депутат городского совета и счастливый семьянин, а главное, ему наконец удалось переселить своих подопечных-соседок в новый дом. Но новая беда уже рядом. Александров потеряет все, что любил, вновь станет жертвой предательства и будет рисковать жизнью…Хорошо, что этот человек никогда не опускает руки. Кто, если не он, спасет детский дом от продажных чиновников, перевоспитает местную шпану и поможет открыть разорившийся завод? Кто выведет на чистую воду негодяев? Только Александров – как всегда, один на всех.



> Релиз группы
> > Семпл > Кино-Театр
> Качество:WEBRip [Источник WEBRip 1080i]> Формат: AVI> Видео кодек: XviD> Аудио кодек: AC3> Видео: 720x400 (1.80:1), 25 fps, XviD build 73 ~1499 kbps avg, 0.21 bit/pixel> Аудио: 44.100 kHz, AC3 Dolby Digital, 2/0 (L,R) ch, ~192.00 kbps avg
General
Complete name                       : D:\Снова один на всех\Snova.odin.na.vseh.s01e01.2014.HDTVRip.RG.Russkie.serialy.avi
Format                              : AVI
Format/Info                         : Audio Video Interleave
File size                           : 539 MiB
Duration                            : 44mn 20s
Overall bit rate                    : 1 701 Kbps
Writing application                 : VirtualDubMod 1.5.10.3 | www.virtualdub-fr.org || (build 2550/release)
Writing library                     : VirtualDubMod build 2550/release

Video
ID                                  : 0
Format                              : MPEG-4 Visual
Format profile                      : Advanced Simple@L5
Format settings, BVOP               : 2
Format settings, QPel               : No
Format settings, GMC                : No warppoints
Format settings, Matrix             : Custom
Codec ID                            : XVID
Codec ID/Hint                       : XviD
Duration                            : 44mn 20s
Bit rate                            : 1 499 Kbps
Width                               : 720 pixels
Height                              : 400 pixels
Display aspect ratio                : 16:9
Frame rate                          : 25.000 fps
Color space                         : YUV
Chroma subsampling                  : 4:2:0
Bit depth                           : 8 bits
Scan type                           : Progressive
Compression mode                    : Lossy
Bits/(Pixel*Frame)                  : 0.208
Stream size                         : 475 MiB (88%)
Writing library                     : XviD 73

Audio
ID                                  : 1
Format                              : AC-3
Format/Info                         : Audio Coding 3
Mode extension                      : CM (complete main)
Format settings, Endianness         : Big
Codec ID                            : 2000
Duration                            : 44mn 20s
Bit rate mode                       : Constant
Bit rate                            : 192 Kbps
Channel(s)                          : 2 channels
Channel positions                   : Front: L R
Sampling rate                       : 44.1 KHz
Bit depth                           : 16 bits
Compression mode                    : Lossy
Stream size                         : 60.9 MiB (11%)
Alignment                           : Split accross interleaves
Interleave, duration                : 40 ms (1.00 video frame)
Interleave, preload duration        : 500 ms
<div class="sp-wrap">
<div class="sp-head folded">Сравнение
</div>
<div class="sp-body">Сравнение с этой раздачей ...4813580
http://screenshotcomparison.com/comparison/116934/picture:9</div>
</div>

Трекер:  [ 23-Июл-2018 20:42 ]

  

Скачать .torrent

Размер .torrent файла 11 KB


Размер: 2.11 GB
Хэш (hash) релиза: 32475c53f8eba4da3a710f2fc2ae8e67619dbbc8
Подписка на обновления:

Еще никто не оставлял запись к записи скачать торрент Снова один на всех Сезон: 1 . Будь первым!

!Обратная связь