Скачать через торрент Париж - это праздник Nocturama Фильм бесплатно в хорошем качестве torrent

Скачивайте на UnionPeer.org фильмы через торрент без регистрации. Новинки кино в хорошем качестве через торрент. На UnionPeer.org можно скачать через торрент фильмы 2014 и 2015 годов. Самые новые фильмы.

Скачать торрент Париж - это праздник Nocturama бесплатно через .torrent фильм мультфильм сериал

Статистика раздачи
Размер:  9.04 GB   |    Зарегистрирован:  30 дней   |    .torrent скачан:  61 раз   |   
Раздают:  1  
   
загрузка...
 
Автор Сообщение

Galfimbul

avatar Galfimbul


Ноктюрама / Париж - это праздник /Nocturama / Paris Is Happening

Год выхода: 2016
Жанр: Триллер, драма
Режиссер: Бертран Бонелло
В ролях: Финнеган Олдфилд, Венсан Ротье, Хамза Мезьяни, Маналь Исса, Адель Энель, Мартен Пети-Гуйо, Рабах Наит Уфелла, Лор Валентинелли

О фильме:
Ноктюрама — загон для ночных животных в зоопарке. Здесь группа подростков взрывает Париж, организовывая параллельные атаки по всему городу, а затем прячется в универмаге 19 века.



Страна: Франция, Германия, Бельгия
Студия: Arte France, Pandora Filmproduktion GmbH, Rectangle Productions, Scope Pictures
Продолжительность: 02:10:39
Перевод: Любительский двухголосый | den904 & DeadSno

Файл
Кодек: x.264
Качество: BDRip 1080p | Nocturama.2016.1080p.BluRay.x264-USURY
Видео: MPEG-4 AVC, 9267 Kбит/с, 1920x808, 23.976 кадр/с
Аудио #1: Русский ( АС3, 2ch, 192 Кбит/с, 48.0 KHz) Любительский (двухголосый, закадровый) den904 & DeadSno
Аудио #2: Французский ( АС3, 6ch, 448 Кбит/с, 48.0 KHz)
Субтитры: Русские, английские, французские, немецкие, итальянские
Источник: Nocturama.2016.1080p.BluRay.x264-USURY
General
Unique ID : 180038603456071000717632763059269325044 (0x87722C7B274074ABBC32BFB7D8D0D0F4)
Complete name : Nocturama.2016.BDRip.1080p.mkv
Format : Matroska
Format version : Version 4 / Version 2
File size : 9.04 GiB
Duration : 2 h 10 min
Overall bit rate : 9 911 kb/s
Encoded date : UTC 2018-12-21 14:44:42
Writing application : mkvmerge v7.1.0 ('Good Love') 64bit built on Jul 27 2014 13:06:55
Writing library : libebml v1.3.0 + libmatroska v1.4.1

Video
ID : 1
Format : AVC
Format/Info : Advanced Video Codec
Format profile : High@L4.1
Format settings, CABAC : Yes
Format settings, RefFrames : 5 frames
Codec ID : V_MPEG4/ISO/AVC
Duration : 2 h 10 min
Bit rate : 9 267 kb/s
Width : 1 920 pixels
Height : 808 pixels
Display aspect ratio : 2.40:1
Frame rate mode : Constant
Frame rate : 23.976 (24000/1001) FPS
Color space : YUV
Chroma subsampling : 4:2:0
Bit depth : 8 bits
Scan type : Progressive
Bits/(Pixel*Frame) : 0.249
Stream size : 8.46 GiB (94%)
Writing library : x264 core 155 r2901 7d0ff22
Encoding settings : cabac=1 / ref=5 / deblock=1:-3:-3 / analyse=0x3:0x133 / me=umh / subme=9 / psy=1 / psy_rd=1.00:0.00 / mixed_ref=1 / me_range=16 / chroma_me=1 / trellis=2 / 8x8dct=1 / cqm=0 / deadzone=21,11 / fast_pskip=0 / chroma_qp_offset=-2 / threads=24 / lookahead_threads=2 / sliced_threads=0 / nr=0 / decimate=1 / interlaced=0 / bluray_compat=0 / constrained_intra=0 / bframes=3 / b_pyramid=2 / b_adapt=1 / b_bias=0 / direct=3 / weightb=1 / open_gop=0 / weightp=2 / keyint=240 / keyint_min=24 / scenecut=40 / intra_refresh=0 / rc_lookahead=50 / rc=2pass / mbtree=1 / bitrate=9267 / ratetol=1.0 / qcomp=0.60 / qpmin=0 / qpmax=69 / qpstep=4 / cplxblur=20.0 / qblur=0.5 / ip_ratio=1.40 / aq=1:1.00
Language : English
Default : Yes
Forced : No

Audio #1
ID : 2
Format : AC-3
Format/Info : Audio Coding 3
Format settings, Endianness : Big
Codec ID : A_AC3
Duration : 2 h 10 min
Bit rate mode : Constant
Bit rate : 192 kb/s
Channel(s) : 2 channels
Channel positions : Front: L R
Sampling rate : 48.0 kHz
Frame rate : 31.250 FPS (1536 SPF)
Bit depth : 16 bits
Compression mode : Lossy
Stream size : 179 MiB (2%)
Language : Russian
Service kind : Complete Main
Default : Yes
Forced : No

Audio #2
ID : 3
Format : AC-3
Format/Info : Audio Coding 3
Format settings, Endianness : Big
Codec ID : A_AC3
Duration : 2 h 10 min
Bit rate mode : Constant
Bit rate : 448 kb/s
Channel(s) : 6 channels
Channel positions : Front: L C R, Side: L R, LFE
Sampling rate : 48.0 kHz
Frame rate : 31.250 FPS (1536 SPF)
Bit depth : 16 bits
Compression mode : Lossy
Stream size : 419 MiB (5%)
Language : French
Service kind : Complete Main
Default : No
Forced : No

Text #1
ID : 4
Format : UTF-8
Codec ID : S_TEXT/UTF8
Codec ID/Info : UTF-8 Plain Text
Duration : 2 h 6 min
Bit rate : 43 b/s
Count of elements : 832
Stream size : 40.7 KiB (0%)
Language : Russian
Default : No
Forced : No

Text #2
ID : 5
Format : UTF-8
Codec ID : S_TEXT/UTF8
Codec ID/Info : UTF-8 Plain Text
Duration : 2 h 7 min
Bit rate : 34 b/s
Count of elements : 984
Stream size : 32.5 KiB (0%)
Language : French
Default : No
Forced : No

Text #3
ID : 6
Format : UTF-8
Codec ID : S_TEXT/UTF8
Codec ID/Info : UTF-8 Plain Text
Duration : 2 h 1 min
Bit rate : 24 b/s
Count of elements : 822
Stream size : 21.8 KiB (0%)
Language : English
Default : No
Forced : No

Text #4
ID : 7
Format : UTF-8
Codec ID : S_TEXT/UTF8
Codec ID/Info : UTF-8 Plain Text
Duration : 2 h 5 min
Bit rate : 26 b/s
Count of elements : 847
Stream size : 24.5 KiB (0%)
Language : German
Default : No
Forced : No

Text #5
ID : 8
Format : UTF-8
Codec ID : S_TEXT/UTF8
Codec ID/Info : UTF-8 Plain Text
Duration : 1 h 59 min
Bit rate : 28 b/s
Count of elements : 836
Stream size : 24.7 KiB (0%)
Language : Italian
Default : No
Forced : No

Menu
00:00:00.000 : en:Chapter 01
00:11:51.335 : en:Chapter 02
00:25:04.586 : en:Chapter 03
00:36:12.670 : en:Chapter 04
00:46:42.633 : en:Chapter 05
01:00:23.453 : en:Chapter 06
01:12:20.252 : en:Chapter 07
01:24:10.462 : en:Chapter 08
01:35:44.488 : en:Chapter 09
01:49:21.554 : en:Chapter 10
01:59:52.268 : en:Chapter 11
02:08:13.852 : en:Chapter 12
02:10:54.096 : en:Chapter 13
Источник http://BlaTor.org

Трекер:  [ 22-Дек-2018 02:00 ]

  

Скачать .torrent

Размер .torrent файла 23 KB


Размер: 9.04 GB
Хэш (hash) релиза: 145b4be18f1b2b3d657d65e52512f5fe76cfb663
Подписка на обновления:

Торренты, похожие на Париж - это праздник Nocturama скачать торрент

Форум Название Автор Размер S L Добавлен
Зарубежные фильмы 2016-2018 (Новинки зарубежного кино) ·· Ноктюрама / Париж это праздник / Nocturama / Paris Is Happening (Бертран Бонелло) [2016, драма, триллер, WEB-DLRip] Galfimbul 22035502372.05 GB 0 0 1487067434

13:17

14-Фев-17

Еще никто не оставлял запись к записи скачать торрент Париж - это праздник Nocturama . Будь первым!

!Обратная связь