Скачать через торрент Праздник Фильм бесплатно в хорошем качестве torrent

Скачивайте на UnionPeer.org фильмы через торрент без регистрации. Новинки кино в хорошем качестве через торрент. На UnionPeer.org можно скачать через торрент фильмы 2014 и 2015 годов. Самые новые фильмы.

Скачать торрент Праздник бесплатно через .torrent фильм мультфильм сериал

Статистика раздачи
Размер:  744 MB   |    Зарегистрирован:  17 дней   |    .torrent скачан:  49 раз   |   
Раздают:  1  
   
загрузка...
 
Автор Сообщение

Galfimbul

avatar Galfimbul


Праздник



[b]Год выпуска
: 2019
Жанр: Комедия, драма, военный, история
Выпущено: Россия
Режиссер: Алексей Красовский
В ролях: Ян Цапник, Алёна Бабенко, Павел Табаков, Анфиса Черных, Тимофей Трибунцев, Анастасия Чистякова (II)

О фильме: Блокадный Ленинград. В загородном доме Воскресенских, живущих «на особом положении», собираются шесть человек, и, несмотря на блокаду, они не голодают. У них есть сырая курица, которую некому приготовить. Раньше этим занималась кухарка, но её у Воскресенских накануне забрали — с наружи наступили тяжёлые времена, да и внутри ситуация тоже нелегкая: младший сын Денис, привёл голодную девушку Машу, старшая дочь Лиза — незнакомого мужчину, по имени Виталий за которого она, по её словам, собирается выйти замуж. До Нового 1942 Года остались считанные минуты, а количество проблем растёт как снежный ком.


Качество: WEB-DLRip
Видео: XviD build 73, 720x400 (16:9), 23.976 fps, 1277 Kbps (0.185 bit/pixel)
Аудио: 48.0 kHz, MP3, 2/0 ch, 128 kbps
Продолжительность: 01:13:34
Перевод: Не требуется
Cубтитры: нет
General
Complete name : D:RazdachiPrazdnik.2019.WEBRip.GeneralFilm.avi
Format : AVI
Format/Info : Audio Video Interleave
File size : 744 MiB
Duration : 1 h 13 min
Overall bit rate : 1 414 kb/s
Writing application : VirtualDubMod 1.5.10.3 | www.virtualdub-fr.org || (build 2550/release)
Writing library : VirtualDubMod build 2550/release

Video
ID : 0
Format : MPEG-4 Visual
Format profile : Advanced Simple@L5
Format settings, BVOP : 1
Format settings, QPel : No
Format settings, GMC : No warppoints
Format settings, Matrix : Custom
Codec ID : XVID
Codec ID/Hint : XviD
Duration : 1 h 13 min
Bit rate : 1 277 kb/s
Width : 720 pixels
Height : 400 pixels
Display aspect ratio : 16:9
Frame rate : 23.976 (24000/1001) FPS
Color space : YUV
Chroma subsampling : 4:2:0
Bit depth : 8 bits
Scan type : Progressive
Compression mode : Lossy
Bits/(Pixel*Frame) : 0.185
Stream size : 672 MiB (90%)
Writing library : XviD 73

Audio
ID : 1
Format : MPEG Audio
Format version : Version 1
Format profile : Layer 3
Codec ID : 55
Codec ID/Hint : MP3
Duration : 1 h 13 min
Bit rate mode : Constant
Bit rate : 128 kb/s
Channel(s) : 2 channels
Sampling rate : 48.0 kHz
Compression mode : Lossy
Stream size : 67.3 MiB (9%)
Alignment : Aligned on interleaves
Interleave, duration : 42 ms (1.00 video frame)
Interleave, preload duratio : 504 ms
Writing library : LAME3.99r
Encoding settings : -m s -V 4 -q 2 -lowpass 17 -b 128
Релиз от:
Источник http://BlaTor.org

Трекер:  [ 03-Янв-2019 12:50 ]

  

Скачать .torrent

Размер .torrent файла 15 KB


Размер: 744 MB
Хэш (hash) релиза: 9bcbdea13843ba2728b8e78970ab296b49d72cde
Подписка на обновления:

Торренты, похожие на Праздник скачать торрент

Форум Название Автор Размер S L Добавлен
Российские фильмы до 2016 ·· От праздника к празднику (Алексей Карелин) [2014, Мелодрама, HDTVRip] Galfimbul 781834240746 MB 0 0 1419077916

15:18

20-Дек-14

Российские фильмы до 2016 ·· От праздника к празднику (Алексей Карелин) [2014, Мелодрама, HDTVRip 720p] Galfimbul 26096381282.43 GB 0 0 1419067801

12:30

20-Дек-14

Российские фильмы до 2016 ·· От праздника к празднику (Алексей Карелин) [2014, Мелодрама, HDTVRip] Galfimbul 14712396861.37 GB 0 0 1419047491

06:51

20-Дек-14

Российские фильмы до 2016 ·· От праздника к празднику (Алексей Карелин) [2014, Мелодрама, HDTV 1080i] Galfimbul 58695897365.47 GB 0 0 1419027976

01:26

20-Дек-14

Зарубежные фильмы до 2016 ·· Семейный праздник / Домой на праздники / Home for the Holidays (Джоди Фостер / Jodie Foster) [1995, США, Комедия, DVDRip] AVO (Санаев) + AVO (Горчаков) + Original Eng Galfimbul 12864081921.2 GB 0 0 1365324603

11:50

7-Апр-13

Российские фильмы 2016-2018 (Новинки русского кино) ·%· Праздник (2019) WEBRip-AVC от ExKinoRay Galfimbul 11661210571.09 GB 0 0 1546487411

06:50

3-Янв-19

Российские фильмы 2016-2018 (Новинки русского кино) ·%· Праздник (2019) WEBRip от Files-x Galfimbul 12697681921.18 GB 0 0 1546477810

04:10

3-Янв-19

Зарубежные фильмы 2016-2018 (Новинки зарубежного кино) ·%· Париж - это праздник / Nocturama (2016) BDRip 1080p | L2 Galfimbul 97117570039.04 GB 0 0 1545433211

02:00

22-Дек-18

Мультфильмы 2016-2018 (Новинки мультфильмов) ·%· Тролли: праздник продолжается / Trolls: The Beat Goes On [S03] (2018) WEB-DLRip 1080p | NewStudio Galfimbul 61372830755.72 GB 0 0 1544897425

21:10

15-Дек-18

Мультфильмы 2016-2018 (Новинки мультфильмов) ·%· Тролли: праздник продолжается / Trolls: The Beat Goes On [S03] (2018) WEB-DLRip 720p | NewStudio Galfimbul 38986182793.63 GB 0 0 1544897414

21:10

15-Дек-18

Мультфильмы 2016-2018 (Новинки мультфильмов) ·%· Тролли: праздник продолжается / Trolls: The Beat Goes On [S03] (2018) WEB-DLRip | NewStudio Galfimbul 18890772481.76 GB 0 0 1544896225

20:50

15-Дек-18

Российские сериалы ·%· Снова один на всех / Сезон: 1 / Серии: 1-4 из 4 (Алексей Праздников) [2014, мелодрама,, WEBRip] Galfimbul 22610739202.11 GB 0 0 1532367797

20:43

23-Июл-18

Российские сериалы ·%· Один на всех / Сезон: 1 / Серии: 1-4 из 4 (Алексей Праздников) [2012, мелодрама, HDTVRip] Galfimbul 22915297282.13 GB 0 0 1531597337

22:42

14-Июл-18

Зарубежные фильмы 2016-2018 (Новинки зарубежного кино) ·%· В поисках праздника / The Leisure Seeker (2017) HDRip 720p | GreenРай Studio Galfimbul 39660393833.69 GB 0 0 1530204248

19:44

28-Июн-18

Зарубежные фильмы 2016-2018 (Новинки зарубежного кино) ·%· В поисках праздника / The Leisure Seeker (2017) HDRip 1080p | GreenРай Studio Galfimbul 93329409198.69 GB 0 0 1530193807

16:50

28-Июн-18

Зарубежные фильмы 2016-2018 (Новинки зарубежного кино) ·· Праздник лета / Sommerfest (Зёнке Вортманн) [2017, драма, мелодрама, комедия, WEBRip] GreenРай Studio Galfimbul 14774572181.38 GB 0 0 1521904369

18:12

24-Мар-18

Российские фильмы 2016-2018 (Новинки русского кино) ·· Праздник разбитых сердец (Глеб Якубовский) [2017, Мелодрама, WEB-DLRip-AVC] Galfimbul 14685206731.37 GB 0 0 1520779866

17:51

11-Мар-18

Российские фильмы 2016-2018 (Новинки русского кино) ·· Праздник разбитых сердец (Глеб Якубовский) [2017, Мелодрама, WEB-DLRip] Galfimbul 14699335681.37 GB 0 0 1520776837

17:00

11-Мар-18

Зарубежные фильмы до 2016 ·· Праздник любви / Feast of Love (Роберт Бентон / Robert Benton ) [2007, США, драма, мелодрама, комедия, BDrip 720p] Dub + Original Eng Galfimbul 44623159014.16 GB 0 0 1516903507

21:05

25-Янв-18

Еще никто не оставлял запись к записи скачать торрент Праздник . Будь первым!

!Обратная связь