Скачать через торрент Семейный праздник Домой на праздники Фильм бесплатно в хорошем качестве torrent

Скачивайте на UnionPeer.org фильмы через торрент без регистрации. Новинки кино в хорошем качестве через торрент. На UnionPeer.org можно скачать через торрент фильмы 2014 и 2015 годов. Самые новые фильмы.

Скачать торрент Семейный праздник Домой на праздники бесплатно через .torrent фильм мультфильм сериал

Статистика раздачи
Размер:  1.2 GB   |    Зарегистрирован:  5 лет 9 месяцев   |    .torrent скачан:  25 раз   |   
Раздают:  1  
   
загрузка...
 
Автор Сообщение

Galfimbul

avatar Galfimbul


Семейный праздник / Домой на праздники / Home for the Holidays
Страна: США
Жанр: Комедия
Год выпуска: 1995
Продолжительность: 01:42:45

Перевод 1: Авторский (одноголосый закадровый) Павла Санаева
Перевод 2: Авторский (одноголосый закадровый) Василия Горчакова
Cубтитры: нет
Оригинальная аудиодорожка: английский

Режиссер: Джоди Фостер / Jodie Foster

В ролях: Холли Хантер /Holly Hunter/, Роберт Дауни-младший /Robert Downey, Jr./, Энн Бэнкрофт /Anne Bancroft/, Дилан МакДермотт /Dylan McDermott/, Джералдин Чаплин /Geraldine Chaplin/, Стив Гуттенберг /Steve Guttenberg/, Клэр Дан, Синтия Стивенсон /Cynthia Stevenson/, Чарлз Дернинг /Charles Durning/, Остин Пендлтон /Austin Pendleton/, Эми Ясбек /Amy Yasbeck/

Рецензия Михаила Иванова: Праздника кино у приличной актрисы Фостер, подавшейся в режиссеры, не получилось. Ее героиня, рестовратор Холли Хантер, уволенная с работы по сокращению, уезжает домой к маме с папой (Бэнкрофт и Дернинг), куда вскоре заявляется и ее брат с другом. Все происходит в канун Дня благодарения, и вскоре на этот семейный праздник собирается куча родственников. Всех актеров Фостер заставляет вести себя необыкновенно и эскцентрично, но она забывает о вкусе, чувстве меры и естественности, необходимой для искусства кино. Даже сцена, в которой тетя громко пукает в машине, смеха у меня лично не вызывает в силу все той же надуманности и неестественности. Сценарий написан по рассказу о том, как Холли влюбляется в друга брата, который, возможно, Джоди экранизировать и не стоило.
ДИСК ИЗ СЕРИИ ЛЮБИМЫЕ ПЕРЕВОДЧИКИ

>>Сэмпл<<

Качество видео: DVDRip
Формат видео: AVI

Видео: 624x352 (1.77:1), 23.976 fps, XviD build 47 ~1169 kbps avg, 0.22 bit/pixel - >отсюда - спасибо )BrainCr3ator(
Аудио 1: 48 kHz, AC3 Dolby Digital, 2/0 (L,R) ch, ~224 kbps - перевод Санаева оцифрован мной с VHS(BASF:E195EQ)
Аудио 2: 48 kHz, MPEG Layer 3, 2 ch, ~128.00 kbps avg - перевод Горчакова >отсюда- спасибо zzzemlemer
Аудио 3: 48 kHz, MPEG Layer 3, 2 ch, ~128.00 kbps avg - english
Format : AVI
Format/Info : Audio Video Interleave
File size : 1.20 GiB
Duration : 1h 42mn
Overall bit rate : 1 669 Kbps
Writing application : VirtualDubMod 1.5.10.3 | www.virtualdub-fr.org || (build 2550/release)
Writing library : VirtualDubMod build 2550/release

Video
ID : 0
Format : MPEG-4 Visual
Format profile : Advanced Simple@L5
Format settings, BVOP : 1
Format settings, QPel : No
Format settings, GMC : No warppoints
Format settings, Matrix : Custom
Codec ID : XVID
Codec ID/Hint : XviD
Duration : 1h 42mn
Bit rate : 1 171 Kbps
Width : 624 pixels
Height : 352 pixels
Display aspect ratio : 16:9
Frame rate : 23.976 fps
Color space : YUV
Chroma subsampling : 4:2:0
Bit depth : 8 bits
Scan type : Progressive
Compression mode : Lossy
Bits/(Pixel*Frame) : 0.222
Stream size : 860 MiB (70%)
Writing library : XviD 1.2.0.dev47 (UTC 2006-11-01)

Audio #1
ID : 1
Format : AC-3
Format/Info : Audio Coding 3
Mode extension : CM (complete main)
Codec ID : 2000
Duration : 1h 42mn
Bit rate mode : Constant
Bit rate : 224 Kbps
Channel(s) : 2 channels
Channel positions : Front: L R
Sampling rate : 48.0 KHz
Bit depth : 16 bits
Compression mode : Lossy
Stream size : 165 MiB (13%)
Alignment : Split accross interleaves
Interleave, duration : 42 ms (1.00 video frame)
Interleave, preload duration : 500 ms
Language : English

Audio #2
ID : 2
Format : MPEG Audio
Format version : Version 1
Format profile : Layer 3
Codec ID : 55
Codec ID/Hint : MP3
Duration : 1h 42mn
Bit rate mode : Constant
Bit rate : 128 Kbps
Channel(s) : 2 channels
Sampling rate : 48.0 KHz
Compression mode : Lossy
Stream size : 94.1 MiB (8%)
Alignment : Aligned on interleaves
Interleave, duration : 42 ms (1.00 video frame)
Interleave, preload duration : 504 ms

Audio #3
ID : 3
Format : MPEG Audio
Format version : Version 1
Format profile : Layer 3
Codec ID : 55
Codec ID/Hint : MP3
Duration : 1h 42mn
Bit rate mode : Constant
Bit rate : 128 Kbps
Channel(s) : 2 channels
Sampling rate : 48.0 KHz
Compression mode : Lossy
Stream size : 94.1 MiB (8%)
Alignment : Aligned on interleaves
Interleave, duration : 42 ms (1.00 video frame)
Interleave, preload duration : 504 ms


Трекер:  [ 17-Апр-2013 13:49 ]

  

Скачать .torrent

Размер .torrent файла 12 KB


Размер: 1.2 GB
Хэш (hash) релиза: cd8d08c621f1c7593f27d7909e75a85fbda37a26
Подписка на обновления:

Еще никто не оставлял запись к записи скачать торрент Семейный праздник Домой на праздники . Будь первым!

!Обратная связь